No Surrender

No Surrender (1,7 Go)

No Surrender (original title)France, Belgium.TV-PGRéalisé Par:

Télécharger Le Film No Surrender Gratuitement

         
Votre note: 0
8.5 2 votes

Synopsis

Au cours des années 1940, une jeune fille a été violée par un groupe de soldats anglais et trois jeunes Egyptiens se sont vengés. Le soldat britannique est actuellement détenu au commissariat de Karamouz à Alexandrie, sous la direction du général Youssef al-Masri (Amir Karara). Le général Frank Adams demande que le soldat anglais lui soit remis, mais Yusuf refuse. L'armée britannique est amenée à bloquer le poste de police et entre dans un affrontement acharné avec le général Yusuf et le reste des soldats égyptiens.NFO: Show/hide text General Unique ID : 9745626321336953600353507223978159934 (0x754F079A0F469376D8216594AC0AF3E) Complete name : No.Surrender.2018.FRENCH.720p.BluRay.Light.x264.AC3-ACOOL.WwW.Zone-Telechargement.Net.mkv Format : Matroska Format version : Version 4 / Version 2 File size : 1.66 GiB Duration : 1 h 56 min Overall bit rate : 2 043 kb/s Movie name : No Surrender Encoded date : UTC 2019-09-19 22:03:08 Writing application : mkvmerge v25.0.0 ('Prog Noir') 64-bit Writing library : libebml v1.3.6 + libmatroska v1.4.9 Video ID : 1 Format : AVC Format/Info : Advanced Video Codec Format profile : [email protected] Format settings : CABAC / 4 Ref Frames Format settings, CABAC : Yes Format settings, ReFrames : 4 frames Codec ID : V_MPEG4/ISO/AVC Duration : 1 h 55 min Bit rate : 1 600 kb/s Width : 1 280 pixels Height : 536 pixels Display aspect ratio : 2.40:1 Frame rate mode : Constant Frame rate : 23.976 (24000/1001) FPS Color space : YUV Chroma subsampling : 4:2:0 Bit depth : 8 bits Scan type : Progressive Bits/(Pixel*Frame) : 0.097 Stream size : 1.29 GiB (78%) Writing library : x264 core 155 r2901 7d0ff22 Encoding settings : cabac=1 / ref=1 / deblock=1:0:0 / analyse=0x3:0x113 / me=hex / subme=2 / psy=1 / psy_rd=1.00:0.00 / mixed_ref=0 / me_range=16 / chroma_me=1 / trellis=0 / 8x8dct=1 / cqm=0 / deadzone=21,11 / fast_pskip=1 / chroma_qp_offset=0 / threads=17 / lookahead_threads=4 / sliced_threads=0 / nr=0 / decimate=1 / interlaced=0 / bluray_compat=0 / constrained_intra=0 / bframes=3 / b_pyramid=2 / b_adapt=1 / b_bias=0 / direct=1 / weightb=1 / open_gop=0 / weightp=1 / keyint=240 / keyint_min=24 / scenecut=40 / intra_refresh=0 / rc_lookahead=10 / rc=2pass / mbtree=1 / bitrate=1600 / ratetol=1.0 / qcomp=0.60 / qpmin=0 / qpmax=69 / qpstep=4 / cplxblur=20.0 / qblur=0.5 / vbv_maxrate=62500 / vbv_bufsize=78125 / nal_hrd=none / filler=0 / ip_ratio=1.40 / aq=1:1.00 Default : Yes Forced : No Color range : Limited Color primaries : BT.709 Transfer characteristics : BT.709 Matrix coefficients : BT.709 Audio ID : 2 Format : AC-3 Format/Info : Audio Coding 3 Codec ID : A_AC3 Duration : 1 h 56 min Bit rate mode : Constant Bit rate : 448 kb/s Channel(s) : 6 channels Channel positions : Front: L C R, Side: L R, LFE Sampling rate : 48.0 kHz Frame rate : 31.250 FPS (1536 SPF) Bit depth : 16 bits Compression mode : Lossy Stream size : 372 MiB (22%) Title : French AC3 5.1 448kb/s Language : French Service kind : Complete Main Default : Yes Forced : No Text #1 ID : 3 Format : UTF-8 Codec ID : S_TEXT/UTF8 Codec ID/Info : UTF-8 Plain Text Duration : 7 s 173 ms Bit rate : 22 b/s Count of elements : 1 Stream size : 20.0 Bytes (0%) Title : FR Forced Language : French Default : Yes Forced : Yes Text #2 ID : 4 Format : UTF-8 Codec ID : S_TEXT/UTF8 Codec ID/Info : UTF-8 Plain Text Duration : 1 h 51 min Bit rate : 53 b/s Count of elements : 1131 Stream size : 43.2 KiB (0%) Title : French SDH Language : French Default : No Forced : No Text #3 ID : 5 Format : UTF-8 Codec ID : S_TEXT/UTF8 Codec ID/Info : UTF-8 Plain Text Duration : 1 h 51 min Bit rate : 44 b/s Count of elements : 1290 Stream size : 36.4 KiB (0%) Title : English SDH Language : English Default : No Forced : No Menu 00:00:00.000 : en:00:00:00.000 00:15:12.620 : en:00:15:12.620 00:29:45.993 : en:00:29:45.993 00:44:30.626 : en:00:44:30.626 01:00:04.059 : en:01:00:04.059 01:14:29.840 : en:01:14:29.840 01:30:25.795 : en:01:30:25.795 01:51:34.354 : en:01:51:34.354

No Surrender () – IMDb

Titre original No Surrender
IMDb Note 8.3 1,594 votes

Recommandée Pour Vous :

Telecharger No Surrender Torrent Telecharger No Surrender 1fichier Telecharger No Surrender Uptobox Regarder No Surrender En Streaming